<?xml version="1.0" standalone="no"?>
<!DOCTYPE svg PUBLIC "-//W3C//DTD SVG 1.1//EN" "http://www.w3.org/Graphics/SVG/1.1/DTD/svg11.dtd" >
<svg xmlns="http://www.w3.org/2000/svg">
  <metadata>Created by iconfont</metadata>
  <defs>
  <font id="dislyte-iconfont" horiz-adv-x="1024">
    <font-face
      font-family="dislyte-iconfont"
      font-weight="400"
      font-stretch="normal"
      units-per-em="1024"
      ascent="896"
      descent="-128"
    />
      <missing-glyph />
      
      <glyph glyph-name="erji1" unicode="&#59016;" d="M965.12 289.6V406.4c0 59.41333333-11.73333333 117.12-34.88 171.62666667-22.29333333 52.58666667-54.29333333 99.84-94.82666667 140.37333333-40.64 40.64-87.89333333 72.53333333-140.37333333 94.82666667-54.50666667 23.14666667-112.21333333 34.88-171.62666667 34.88s-117.12-11.73333333-171.62666666-34.88c-52.58666667-22.29333333-99.84-54.29333333-140.37333334-94.82666667-40.64-40.64-72.53333333-87.89333333-94.82666666-140.37333333-23.36-54.50666667-35.09333333-112.21333333-35.09333334-171.62666667v-116.8c-23.14666667-35.41333333-35.41333333-78.08-35.41333333-123.30666667 0-45.44 12.37333333-88.21333333 35.62666667-123.73333333 18.98666667-29.01333333 44.48-51.09333333 73.06666666-63.78666667 10.24-34.34666667 42.13333333-59.41333333 79.68-59.41333333H265.6c45.86666667 0 83.2 37.33333333 83.2 83.2v327.46666667c0 45.86666667-37.33333333 83.2-83.2 83.2h-31.14666667c-37.54666667 0-69.44-25.06666667-79.68-59.41333334-4.58666667-2.02666667-9.17333333-4.37333333-13.65333333-6.93333333V406.4c0 51.30666667 10.13333333 101.22666667 30.08 148.26666667 19.30666667 45.44 46.93333333 86.4 82.13333333 121.49333333 35.2 35.2 76.05333333 62.82666667 121.49333334 82.13333333 47.04 19.94666667 96.96 30.08 148.26666666 30.08 51.30666667 0 101.22666667-10.13333333 148.26666667-30.08 45.44-19.30666667 86.4-46.93333333 121.49333333-82.13333333 35.2-35.2 62.82666667-76.05333333 82.13333334-121.49333333 19.94666667-47.04 30.08-96.96 30.08-148.26666667v-59.52c-4.48 2.56-8.96 4.90666667-13.65333334 6.93333333-10.24 34.34666667-42.13333333 59.41333333-79.68 59.41333334h-31.14666666c-45.86666667 0-83.2-37.33333333-83.2-83.2v-327.46666667c0-45.86666667 37.33333333-83.2 83.2-83.2H811.73333333c37.54666667 0 69.44 25.06666667 79.68 59.41333333 28.58666667 12.8 54.08 34.88 73.06666667 63.78666667 23.36 35.52 35.62666667 78.29333333 35.62666667 123.73333333 0.42666667 45.22666667-11.84 87.78666667-34.98666667 123.30666667z"  horiz-adv-x="1024" />
      
      <glyph glyph-name="erji2" unicode="&#59017;" d="M232.96-82.59555554999997h31.14666667c45.97333333 0 83.2 37.22666667 83.2 83.2v67.73333333c0 9.49333333-11.52 14.29333333-18.24 7.57333333L195.30666667-57.84888889000001c-5.22666667-5.22666667-3.73333333-14.08 2.98666666-17.17333333 10.56-4.90666667 22.29333333-7.57333333 34.66666667-7.57333333zM347.30666667 328.07111110999995c0 45.97333333-37.22666667 83.2-83.2 83.2h-31.14666667c-37.54666667 0-69.44-25.06666667-79.68-59.41333333-4.58666667-2.02666667-9.17333333-4.37333333-13.65333333-6.93333333v59.52c0 51.30666667 10.13333333 101.22666667 30.08 148.26666666 19.30666667 45.44 46.93333333 86.4 82.13333333 121.49333334s76.05333333 62.82666667 121.49333333 82.13333333c47.04 19.94666667 96.96 30.08 148.26666667 30.08s101.22666667-10.13333333 148.26666667-30.08c18.45333333-7.89333333 36.16-17.06666667 53.01333333-27.62666667 11.84-7.36 27.09333333-5.65333333 36.90666667 4.16 13.65333333 13.65333333 10.98666667 36.37333333-5.33333334 46.50666667-19.52 12.16-39.89333333 22.82666667-61.22666666 31.89333333C638.72 834.41777778 581.01333333 846.15111111 521.6 846.15111111s-117.12-11.73333333-171.62666667-34.88C297.38666667 788.97777778 250.13333333 756.97777778 209.6 716.44444445c-40.64-40.64-72.53333333-87.89333333-94.82666667-140.37333334-23.14666667-54.50666667-34.88-112.21333333-34.88-171.62666666V287.64444445000004c-23.14666667-35.41333333-35.41333333-78.08-35.41333333-123.30666667 0-32.64 6.4-63.89333333 18.56-92.16 5.22666667-12.05333333 20.90666667-15.14666667 30.18666667-5.86666667l248.53333333 248.53333334c3.52 3.62666667 5.54666667 8.32 5.54666667 13.22666666zM963.52 287.64444445000004V404.55111111c0 59.41333333-11.73333333 117.12-34.88 171.62666667-4.37333333 10.24-9.06666667 20.37333333-14.18666667 30.18666667-9.28 17.92-33.38666667 21.65333333-47.68 7.36-9.28-9.28-11.30666667-23.36-5.33333333-34.98666667 4.37333333-8.42666667 8.42666667-17.06666667 12.16-25.92 19.94666667-47.04 30.08-96.96 30.08-148.26666667v-59.52c-4.48 2.56-8.96 4.90666667-13.65333333 6.93333334-10.24 34.34666667-42.13333333 59.41333333-79.68 59.41333333h-31.14666667c-45.97333333 0-83.2-37.22666667-83.2-83.2v-327.46666667c0-45.97333333 37.22666667-83.2 83.2-83.2h31.14666667c37.54666667 0 69.44 25.06666667 79.68 59.41333334 28.58666667 12.8 54.08 34.88 73.06666666 63.78666666 23.36 35.52 35.62666667 78.29333333 35.62666667 123.73333334 0.21333333 45.12-12.05333333 87.78666667-35.2 123.2zM79.68-60.302222219999976c-11.62666667 11.62666667-11.62666667 30.61333333 0 42.24l770.13333333 770.13333333c11.62666667 11.62666667 30.61333333 11.62666667 42.24 0 11.62666667-11.62666667 11.62666667-30.61333333 0-42.24l-770.13333333-770.13333333c-11.62666667-11.62666667-30.50666667-11.62666667-42.24 0z"  horiz-adv-x="1024" />
      
      <glyph glyph-name="Headset-" unicode="&#59913;" d="M989.866667 223.573333v136.533334c0 273.066667-221.866667 512-477.866667 512s-477.866667-238.933333-477.866667-512v-136.533334c0-6.826667 3.413333-13.653333 6.826667-17.066666-23.893333-34.133333-40.96-78.506667-40.96-119.466667 0-122.88 112.64-187.733333 221.866667-187.733333 27.306667 0 51.2 23.893333 51.2 51.2v307.2c0 27.306667-23.893333 51.2-51.2 51.2-40.96 0-85.333333-17.066667-119.466667-40.96v92.16C102.4 486.4 157.013333 602.453333 238.933333 684.373333v-51.2c0-10.24 3.413333-13.653333 10.24-17.066666 6.826667-3.413333 13.653333 0 17.066667 3.413333C331.093333 684.373333 409.6 715.093333 512 715.093333s180.906667-30.72 242.346667-95.573333c3.413333-3.413333 6.826667-6.826667 13.653333-6.826667h6.826667c6.826667 6.826667 10.24 10.24 10.24 17.066667V680.96c81.92-81.92 136.533333-197.973333 136.533333-324.266667v-78.506666c-37.546667 17.066667-78.506667 27.306667-119.466667 27.306666-27.306667 0-51.2-23.893333-51.2-51.2v-307.2c0-27.306667 23.893333-51.2 51.2-51.2 112.64 0 221.866667 109.226667 221.866667 221.866667 0 40.96-13.653333 78.506667-34.133333 105.813333z m-785.066667 30.72c0 10.24 6.826667 17.066667 17.066667 17.066667s17.066667-6.826667 17.066666-17.066667v-307.2c0-10.24-6.826667-17.066667-17.066666-17.066666S204.8-59.733333 204.8-52.906667v307.2z m614.4-307.2c0-10.24-6.826667-17.066667-17.066667-17.066666s-17.066667 10.24-17.066666 17.066666v307.2c0 10.24 6.826667 17.066667 17.066666 17.066667s17.066667-6.826667 17.066667-17.066667v-307.2z"  horiz-adv-x="1024" />
      
      <glyph glyph-name="ziyuanldpi" unicode="&#58908;" d="M828.40625-37.875a52.734375 52.734375 0 0 0-52.734375 52.734375V436.734375a52.734375 52.734375 0 0 0 105.46875 0v-421.875a52.734375 52.734375 0 0 0-52.734375-52.734375z m-210.9375 0a52.734375 52.734375 0 0 0-52.734375 52.734375V753.140625a52.734375 52.734375 0 0 0 105.46875 0v-738.28125a52.734375 52.734375 0 0 0-52.734375-52.734375z m-210.9375 0a52.734375 52.734375 0 0 0-52.734375 52.734375v210.9375a52.734375 52.734375 0 0 0 105.46875 0v-210.9375a52.734375 52.734375 0 0 0-52.734375-52.734375z m-210.9375 0a52.734375 52.734375 0 0 0-52.734375 52.734375V542.203125a52.734375 52.734375 0 0 0 105.46875 0v-527.34375a52.734375 52.734375 0 0 0-52.734375-52.734375z"  horiz-adv-x="1024" />
      
      <glyph glyph-name="ic_prohibited24px" unicode="&#58902;" d="M512 810.666667c235.648 0 426.666667-191.018667 426.666667-426.666667s-191.018667-426.666667-426.666667-426.666667S85.333333 148.352 85.333333 384 276.352 810.666667 512 810.666667zM170.666667 384a341.333333 341.333333 0 0 1 550.613333-269.653333L242.304 593.237333A339.84 339.84 0 0 1 170.666667 384z m341.333333 341.333333c-78.848 0-151.466667-26.752-209.28-71.68l478.976-478.933333A341.333333 341.333333 0 0 1 512 725.333333z"  horiz-adv-x="1024" />
      
      <glyph glyph-name="musicfill" unicode="&#59285;" d="M921.01973333 108.20266666999999C921.12213333 109.12426667 921.6 109.97760000000005 921.6 110.93333332999998L921.6 759.46666667c0 1.1264-0.54613333 2.11626667-0.64853333 3.20853333-0.03413333 1.77493333 0.47786667 3.44746667 0.17066666 5.25653333-3.072 18.56853333-20.61653333 31.1296-39.25333333 28.0576l-512-85.33333333c-18.56853333-3.10613333-31.16373333-20.6848-28.0576-39.28746667 0.27306667-1.57013333 1.09226667-2.83306667 1.536-4.3008C342.35733333 663.8250666700001 341.33333333 660.61653333 341.33333333 657.06666667l0-458.24c-21.46986667 10.00106667-46.55786667 15.7696-74.0352 15.7696-22.7328 0-45.6704-3.6864-68.23253333-11.02506667-42.25706667-13.65333333-78.4384-38.63893333-101.95626667-70.38293333-25.66826667-34.67946667-33.792-74.92266667-22.25493333-110.55786667 16.6912-51.5072 71.09973333-84.75306667 138.58133333-84.75306667 22.66453333 0 45.568 3.6864 68.16426667 10.99093334 62.5664 20.30933333 106.97386667 63.14666667 122.70933333 110.72853333C407.3472 64.71680000000003 409.6 70.38293333000001 409.6 76.79999999999995l0 5.66613333c1.1264 9.04533333 1.1264 18.09066667 0 27.17013334L409.6 648.05546667l443.73333333 73.96693333 0-523.60533333c-21.67466667 10.27413333-47.03573333 16.21333333-74.8544 16.21333333-22.69866667 0-45.6704-3.6864-68.23253333-11.02506667-42.22293333-13.65333333-78.47253333-38.63893333-101.95626667-70.38293333-25.7024-34.67946667-33.792-74.92266667-22.25493333-110.55786667 16.6912-51.5072 71.09973333-84.75306667 138.58133333-84.75306666 22.66453333 0 45.60213333 3.6864 68.16426667 10.99093333C876.2368-24.063999999999965 928.18773333 43.00800000000004 921.01973333 108.20266666999999z"  horiz-adv-x="1024" />
      
      <glyph glyph-name="musicforbidfill" unicode="&#59286;" d="M623.54773333 150.42560000000003c-5.39306667-5.56373333-10.752-11.12746667-15.2576-17.23733333-25.7024-34.67946667-33.792-74.92266667-22.25493333-110.55786667 16.6912-51.5072 71.09973333-84.75306667 138.58133333-84.75306667 22.66453333 0 45.60213333 3.6864 68.16426667 10.99093334 10.27413333 3.34506667 20.03626667 7.2704 29.25226667 11.74186666L623.54773333 150.42560000000003zM409.6 638.49813333l0 9.55733334 443.73333333 73.9328 0-507.93813334 68.26666667-65.29706666L921.6 759.46666667c0 1.1264-0.54613333 2.11626667-0.64853333 3.20853333-0.03413333 1.77493333 0.47786667 3.44746667 0.17066666 5.2224-3.072 18.60266667-20.71893333 31.36853333-39.25333333 28.0576l-512-85.33333333C360.78933333 709.12 353.28 704.06826667 348.16 697.2416000000001L409.6 638.49813333zM341.33333333 420.352l0-221.52533333c-21.46986667 10.00106667-46.55786667 15.7696-74.0352 15.7696-22.69866667 0-45.6704-3.6864-68.23253333-11.02506667-42.22293333-13.65333333-78.47253333-38.63893333-101.95626667-70.38293333-25.7024-34.67946667-33.792-74.92266667-22.25493333-110.55786667 16.6912-51.5072 71.09973333-84.75306667 138.58133333-84.75306667 22.66453333 0 45.60213333 3.6864 68.16426667 10.99093334 62.5664 20.30933333 107.008 63.14666667 122.70933333 110.72853333C407.38133333 64.71680000000003 409.6 70.38293333000001 409.6 76.79999999999995l0 5.56373333c1.1264 9.07946667 1.1264 18.15893333 0 27.30666667l0 245.38453333L341.33333333 420.352zM955.73333333-59.73333333000005c-8.4992 0-16.96426667 3.14026667-23.58613333 9.45493333l-785.06666667 750.93333333C133.46133333 713.69386667 132.98346667 735.30026667 145.98826667 748.91946667c13.0048 13.58506667 34.64533333 14.09706667 48.26453333 1.05813333l785.06666667-750.93333333c13.58506667-13.03893333 14.09706667-34.64533333 1.05813333-48.26453334C973.68746667-56.18346667000003 964.74453333-59.73333333000005 955.73333333-59.73333333000005z"  horiz-adv-x="1024" />
      
      <glyph glyph-name="MusicAcc" unicode="&#59194;" d="M217.7-32.3c-47.7 0-84.1 36.4-84.1 84.1V276.1c0 47.7 36.4 84.1 84.1 84.1 47.7 0 84.1-36.4 84.1-84.1v-224.3c0-47.6-36.5-84.1-84.1-84.1z m672.7 84.1V276.1c0 47.7-39.2 84.1-84.1 84.1-44.9 0-84.1-36.4-84.1-84.1v-224.3c0-47.7 39.2-84.1 84.1-84.1 44.9 0 84.1 36.5 84.1 84.1z m70.1 266.3C960.5 576 755.9 800.3 512 800.3S63.5 573.2 63.5 318.1v-280.3h42V318.1c0 235.5 185 442.9 406.5 442.9s406.5-207.4 406.5-442.9v-280.3h42V318.1z"  horiz-adv-x="1024" />
      
      <glyph glyph-name="menu" unicode="&#59499;" d="M92 804h840v-120H92V804z m0-720h840v-120H92v120z m0 360h840v-120H92V444z"  horiz-adv-x="1024" />
      
      <glyph glyph-name="close1" unicode="&#58980;" d="M510.8096 475.6992l335.296 335.296 90.5088-90.5088-335.296-335.296 335.296-335.296-90.5088-90.5088-335.296 335.296-335.296-335.296-90.5088 90.5088 335.296 335.296-335.296 335.296 90.5088 90.5088z"  horiz-adv-x="1024" />
      
      <glyph glyph-name="email" unicode="&#58883;" d="M699.23527126 305.11816433L1191.97648192 797.859375A109.65234348 109.65234348 0 0 1 1150.77335719 805.875h-905.27343777c-13.95703152 0-27.36035129-2.63671875-39.66503851-7.36523465l493.40039035-493.39160102zM699.23527126 205.69628879000004l-547.55859348 547.55859429A109.16015625 109.16015625 0 0 1 135.63663844 696.01171902v-624.02343804C135.63663844 11.343749730000013 184.85538817-37.875 245.49991942-37.875h905.27343777c60.64453125 0 109.86328098 49.21874973 109.86328099 109.86328098v624.02343804a109.5996091 109.5996091 0 0 1-15.26660156 55.81054661L699.23527126 205.69628879000004z"  horiz-adv-x="1365" />
      
      <glyph glyph-name="stop" unicode="&#58960;" d="M228.3284375 805.875h140.6325v-843.75h-140.6325v843.75zM650.2034375 805.875h140.6109375v-843.75h-140.6109375v843.75z"  horiz-adv-x="1024" />
      
      <glyph glyph-name="xiangxia" unicode="&#58882;" d="M878.592 645.12q29.696 0 48.128-11.264t24.576-29.696 0-41.472-26.624-45.568q-82.944-92.16-159.744-180.224t-148.48-164.864q-19.456-20.48-45.568-31.744t-53.76-11.776-53.248 8.704-43.008 28.672q-39.936 44.032-82.944 90.112l-88.064 92.16q-43.008 46.08-85.504 90.624t-79.36 86.528q-17.408 19.456-22.528 40.448t1.024 38.4 23.552 28.672 45.056 11.264q35.84 0 98.816 0.512t137.728 0.512l153.6 0 150.528 0 125.952 0 79.872 0z"  horiz-adv-x="1024" />
      
      <glyph glyph-name="baike" unicode="&#58918;" d="M876.59 674.4255V18.465000000000032H256.994c-60.462 0-109.2735 48.969-109.2735 109.2735s48.969 109.2735 109.2735 109.2735h546.6825V820.23H220.6295c-80.145 0-145.8-65.655-145.8-145.8v-583.0515c0-80.145 65.655-145.8045 145.8-145.8045h728.8515V674.4255h-72.9 0.0045zM293.525 164.274h510.1515v-72.9H293.5295v72.9z"  horiz-adv-x="1024" />
      
      <glyph glyph-name="instagram-fill" unicode="&#59535;" d="M512 535.66577778c-83.51288889 0-151.66577778-68.15288889-151.66577778-151.66577778S428.48711111 232.33422222000002 512 232.33422222000002 663.66577778 300.48711111 663.66577778 384 595.51288889 535.66577778 512 535.66577778zM966.88355555 384c0 62.80533333 0.56888889 125.04177778-2.95822222 187.73333333-3.52711111 72.81777778-20.13866667 137.44355555-73.38666666 190.69155556-53.36177778 53.36177778-117.87377778 69.85955555-190.69155556 73.38666666-62.80533333 3.52711111-125.04177778 2.95822222-187.73333333 2.95822223-62.80533333 0-125.04177778 0.56888889-187.73333333-2.95822223-72.81777778-3.52711111-137.44355555-20.13866667-190.69155556-73.38666666C80.32711111 709.06311111 63.82933333 644.55111111 60.30222222 571.73333333c-3.52711111-62.80533333-2.95822222-125.04177778-2.95822222-187.73333333s-0.56888889-125.04177778 2.95822222-187.73333333c3.52711111-72.81777778 20.13866667-137.44355555 73.38666667-190.69155556 53.36177778-53.36177778 117.87377778-69.85955555 190.69155556-73.38666666 62.80533333-3.52711111 125.04177778-2.95822222 187.73333333-2.95822223 62.80533333 0 125.04177778-0.56888889 187.73333333 2.95822223 72.81777778 3.52711111 137.44355555 20.13866667 190.69155556 73.38666666 53.36177778 53.36177778 69.85955555 117.87377778 73.38666666 190.69155556 3.64088889 62.69155555 2.95822222 124.928 2.95822222 187.73333333zM512 150.64177777999998c-129.13777778 0-233.35822222 104.22044445-233.35822222 233.35822222S382.86222222 617.35822222 512 617.35822222 745.35822222 513.1377777800001 745.35822222 384 641.13777778 150.64177777999998 512 150.64177777999998z m242.91555555 421.77422222c-30.15111111 0-54.49955555 24.34844445-54.49955555 54.49955555s24.34844445 54.49955555 54.49955555 54.49955556 54.49955555-24.34844445 54.49955556-54.49955556c-0.11377778-30.26488889-24.34844445-54.49955555-54.49955556-54.49955555z"  horiz-adv-x="1024" />
      
      <glyph glyph-name="search" unicode="&#59033;" d="M416 704C537.6 704 640 601.6 640 480S537.6 256 416 256 192 358.4 192 480 294.4 704 416 704M416 768C256 768 128 640 128 480S256 192 416 192 704 320 704 480 576 768 416 768L416 768zM832 32c-6.4 0-19.2 0-25.6 6.4l-192 192c-12.8 12.8-12.8 32 0 44.8s32 12.8 44.8 0l192-192c12.8-12.8 12.8-32 0-44.8C851.2 32 838.4 32 832 32z"  horiz-adv-x="1024" />
      
      <glyph glyph-name="playfill" unicode="&#59215;" d="M882.26383645 416.81654518l-621.37837037 392.90531082C248.92393245 817.29490489 233.77783467 817.76093867 221.42793955 810.9257765899999 209.00037215 804.09061452 201.31081482 791.04166875 201.31081482 776.90531082l0-785.6164409c0-14.13635792 7.68955733-27.1853037 20.11712473-34.02046577 5.82542222-3.2234003 12.27222282-4.81568237 18.71902342-4.81568237 7.22352355 0 14.44704711 2.0194797 20.73850311 5.98076681l621.37837037 392.74996623C893.52631941 358.29046991999996 900.36148148 370.67920117999995 900.36148148 384 900.36148148 397.32079882 893.52631941 409.70953008 882.26383645 416.81654518z"  horiz-adv-x="1024" />
      
      <glyph glyph-name="mn_shengyinwu_fill" unicode="&#58880;" d="M192 576c-54.4 0-96-41.6-96-92.8V288c0-54.4 41.6-96 96-96h83.2l182.4-188.8c22.4-22.4 44.8-35.2 67.2-35.2 6.4 0 12.8 0 19.2 3.2 19.2 9.6 32 28.8 32 51.2v224L233.6 576H192z m758.4-489.6l-57.6 54.4C934.4 214.39999999999998 960 297.6 960 384c0 115.2-41.6 227.2-118.4 316.8-12.8 12.8-32 16-44.8 3.2-12.8-12.8-16-32-3.2-44.8 64-76.8 102.4-176 102.4-275.2 0-70.4-19.2-137.6-51.2-195.2L752 278.4c9.6 35.2 16 70.4 16 105.6 0 73.6-22.4 144-67.2 204.8-9.6 16-28.8 19.2-44.8 6.4s-19.2-28.8-6.4-44.8c35.2-48 54.4-108.8 54.4-166.4 0-19.2-3.2-38.4-6.4-54.4L576 444.8V742.4c0 25.6-12.8 44.8-32 51.2-25.6 9.6-57.6 0-86.4-32L352 656 214.4 790.4c-12.8 12.8-32 12.8-44.8 0-12.8-12.8-12.8-32 0-44.8l736-704c6.4-6.4 12.8-9.6 22.4-9.6 9.6 0 16 3.2 22.4 9.6 12.8 12.8 12.8 32 0 44.8z"  horiz-adv-x="1024" />
      
      <glyph glyph-name="mn_shengyin_fill" unicode="&#58881;" d="M526.432-28.063999999999965c-20.96 0-44.16 12.576-68.96 37.344L274.752 192H192c-52.928 0-96 43.072-96 96V480c0 52.928 43.072 96 96 96h82.752l182.624 182.624c24.576 24.576 47.744 37.024 68.864 37.024C549.184 795.648 576 780 576 736v-704c0-44.352-26.72-60.064-49.568-60.064zM687.584 165.63199999999995a31.898 31.898 0 0 0-18.656 6.016c-14.336 10.304-17.632 30.304-7.328 44.672l12.672 17.344C707.392 278.55999999999995 736 317.376 736 384c0 69.024-25.344 102.528-57.44 144.928-5.664 7.456-11.328 15.008-16.928 22.784-10.304 14.336-7.04 34.336 7.328 44.672 14.368 10.368 34.336 7.04 44.672-7.328 5.248-7.328 10.656-14.464 15.968-21.504C764.224 521.7919999999999 800 474.496 800 384c0-87.648-39.392-141.12-74.144-188.32l-12.224-16.736c-6.272-8.704-16.064-13.312-26.048-13.312zM796.448 56.99199999999996a31.906 31.906 0 0 0-21.088 7.936c-13.28 11.648-14.624 31.872-2.976 45.152C836.608 183.32799999999997 896 267.13599999999997 896 384s-59.392 200.704-123.616 273.888c-11.648 13.312-10.304 33.504 2.976 45.184 13.216 11.648 33.44 10.336 45.152-2.944C889.472 621.44 960 522.4 960 384s-70.528-237.472-139.488-316.096c-6.368-7.232-15.2-10.912-24.064-10.912z"  horiz-adv-x="1024" />
      
      <glyph glyph-name="share" unicode="&#58984;" d="M734.96803555 529.6355555499999c80.39082667 0 145.63555555 65.24472889 145.63555556 145.63555556s-65.24472889 145.63555555-145.63555556 145.63555556-145.63555555-65.24472889-145.63555555-145.63555556c0-4.95160889 0.29127111-9.8304 0.72817778-14.63637333l-212.62791111-154.44650667C354.64078222 521.04305778 327.33411555 529.6355555499999 298.06136889 529.6355555499999c-80.39082667 0-145.63555555-65.24472889-145.63555556-145.63555555s65.24472889-145.63555555 145.63555556-145.63555555c36.19043555 0 69.24970667 13.18001778 94.73592889 34.95253333l200.68579555-145.85400889C590.78883555 116.32184888999996 589.33248 104.67100445000005 589.33248 92.72888889000001c0-80.39082667 65.24472889-145.63555555 145.63555555-145.63555556s145.63555555 65.24472889 145.63555556 145.63555556-65.24472889 145.63555555-145.63555556 145.63555556c-42.01585778 0-79.95392-17.76753778-106.53240888-46.31210667L434.59470222 333.02755555C440.49294222 348.90183111 443.69692445 366.08682667000005 443.69692445 384c0 24.61240889-6.11669333 47.69564445-16.82090667 68.08462222L616.8576 590.07431111C643.36327111 553.44696889 686.39857778 529.6355555499999 734.96803555 529.6355555499999z"  horiz-adv-x="1024" />
      
      <glyph glyph-name="danmu" unicode="&#58889;" d="M221.58 576.11h-48c-35.9 0-65 29.1-65 65s29.1 65 65 65h48c35.9 0 65-29.1 65-65s-29.1-65-65-65zM718.58 576.11h-322c-35.9 0-65 29.1-65 65s29.1 65 65 65h322c35.9 0 65-29.1 65-65s-29.1-65-65-65zM407.58 316.11h-234c-35.9 0-65 29.1-65 65s29.1 65 65 65h234c35.9 0 65-29.1 65-65s-29.1-65-65-65zM256.58 57.110000000000014h-83c-35.9 0-65 29.1-65 65s29.1 65 65 65h83c35.9 0 65-29.1 65-65s-29.1-65-65-65zM429.58 57.110000000000014h-1c-35.9 0-65 29.1-65 65s29.1 65 65 65h1c35.9 0 65-29.1 65-65s-29.1-65-65-65zM713.96 499.28c-122.04 0-220.97-98.93-220.97-220.97s98.93-220.97 220.97-220.97 220.97 98.93 220.97 220.97S836 499.28 713.96 499.28zM837.9 334.09000000000003L689.88 180.74a30.078 30.078 0 0 0-21.38-9.19h-0.27c-7.97 0-15.63 3.17-21.27 8.81l-56.57 56.57c-11.75 11.75-11.75 30.79 0 42.54s30.79 11.75 42.54 0l34.92-34.91 126.76 131.32c11.54 11.96 30.58 12.29 42.54 0.75 11.95-11.54 12.29-30.58 0.75-42.54z"  horiz-adv-x="1024" />
      
      <glyph glyph-name="angle-right" unicode="&#59470;" d="M593.47460938 384L248.328125 729.14648438 325.05664062 805.875l421.87500001-421.875-421.87500001-421.875L248.328125 38.85351562000005z"  horiz-adv-x="1024" />
      
      <glyph glyph-name="close" unicode="&#58950;" d="M570.65811817 382.38441623000006l343.41511268 341.63382804c16.23868809 16.15583763 16.32153853 42.33657964 0.1657009 58.57526771-16.19726285 16.2801133-42.33657964 16.32153853-58.57526772 0.16570091l-343.49796313-341.67525326-340.51534696 341.55097758C155.53594153 798.79077484 129.3137743 798.8736252799999 113.07508622 782.71778765 96.87782337 766.5619500299999 96.83639813 740.33978279 112.99223577 724.10109472l340.43249652-341.46812714L110.1753205 41.20626569000001c-16.23868809-16.15583763-16.32153853-42.33657964-0.16570091-58.57526773 8.07791882-8.11934403 18.72420157-12.22044128 29.37048431-12.22044128 10.5634323 0 21.12686459 4.01824679 29.20478341 12.05474039l343.33226224 341.50955235 343.62223881-344.65786942c8.07791882-8.11934403 18.68277634-12.17901605 29.32905909-12.17901607 10.60485751 0 21.16828981 4.05967202 29.24620864 12.09616562 16.19726285 16.15583763 16.23868809 42.33657964 0.08285044 58.5752677L570.65811817 382.38441623000006z"  horiz-adv-x="1024" />
      
      <glyph glyph-name="right" unicode="&#59169;" d="M940.70136528 724.59267404a39.0170383 39.0170383 0 0 1-59.47557594-1.81166315l-487.38157689-576.72750152-251.20256252 294.10804859a39.06122521 39.06122521 0 0 1-59.51976284 1.50235481 51.25681135 51.25681135 0 0 1-1.32560719-66.63385476l281.82408862-329.94362963c7.95364315-9.32343723 18.91199591-14.58167909 30.40059157-14.58167908h0.13256071a40.16589787 40.16589787 0 0 1 30.44477847 14.71423981L942.38046773 657.9588193c15.90728628 18.95618282 15.20029579 48.78234459-1.67910245 66.63385474"  horiz-adv-x="1024" />
      
      <glyph glyph-name="dui" unicode="&#58949;" d="M554.1063591 895.99995415C273.13964764 895.88620269 45.47698524 668.06428802 45.5111111 387.12032749S273.2988999-121.58867197999996 554.25423644-121.62279784999998s508.75450027 227.63991147 508.89100266 508.595248A508.811376 508.811376 0 0 1 554.1063591 895.99995415z m292.01200214-376.92764906L516.82992497 190.02274775a46.06944 46.06944 0 0 0-66.15799147 0L261.20709404 379.46483735000004a46.78835093 46.78835093 0 1 0 66.1693664 66.16936747l157.03422933-157.03422933 296.425568 295.322176a46.78607573 46.78607573 0 1 0 66.15799147-66.1693664z m0 0"  horiz-adv-x="1098" />
      
      <glyph glyph-name="discord" unicode="&#60408;" d="M1015.495625 733.0575a2.8125 2.8125 0 0 1-1.4325 1.3125A909.496875 909.496875 0 0 1 789.651875 803.94375a3.405 3.405 0 0 1-3.605625-1.70625 632.739375 632.739375 0 0 1-27.9375-57.375 839.715 839.715 0 0 1-252.04875 0 580.389375 580.389375 0 0 1-28.378125 57.375 3.54375 3.54375 0 0 1-3.6075 1.70625 906.916875 906.916875 0 0 1-224.415-69.575625 3.21 3.21 0 0 1-1.4775-1.2675C105.2525 519.6543750000001 66.09875 311.45624999999995 85.30625 105.83624999999995a3.78 3.78 0 0 1 1.434375-2.578125 914.37375 914.37375 0 0 1 275.296875-139.104375 3.5625 3.5625 0 0 1 3.868125 1.2675A652.875 652.875 0 0 1 422.225 57a3.4875 3.4875 0 0 1-1.910625 4.8525 602.199375 602.199375 0 0 0-86.0025 40.974375 3.534375 3.534375 0 0 0-0.346875 5.86125 470.713125 470.713125 0 0 1 17.079375 13.381875 3.410625 3.410625 0 0 0 3.5625 0.48c180.429375-82.344375 375.76875-82.344375 554.0625 0a3.3975 3.3975 0 0 0 3.6075-0.436875 439.749375 439.749375 0 0 1 17.1225-13.425 3.5325 3.5325 0 0 0-0.30375-5.86125 565.138125 565.138125 0 0 0-86.04375-40.93125 3.515625 3.515625 0 0 1-1.875-4.895625 733.228125 733.228125 0 0 1 56.27625-91.528125 3.495 3.495 0 0 1 3.868125-1.3125A911.34 911.34 0 0 1 1177.0625 103.25812499999995a3.52875 3.52875 0 0 1 1.434375 2.535c22.995 237.718125-38.4975 444.21-163.00125 627.264375zM449.170625 231.03750000000002c-54.3225 0-99.0825 49.850625-99.0825 111.073125s43.891875 111.076875 99.0825 111.076875c55.621875 0 99.94875-50.2875 99.080625-111.073125 0-61.22625-43.89375-111.076875-99.080625-111.076875z m366.3375 0c-54.320625 0-99.080625 49.850625-99.080625 111.073125s43.891875 111.076875 99.080625 111.076875c55.625625 0 99.950625-50.2875 99.0825-111.073125 0-61.22625-43.456875-111.076875-99.0825-111.076875z"  horiz-adv-x="1280" />
      
      <glyph glyph-name="audio" unicode="&#58939;" d="M512 271.985778c93.895111 0 170.012444 75.207111 170.012444 168.021333V664.007111C682.012444 756.792889 605.866667 832 512 832s-170.012444-75.207111-170.012444-167.992889v-224c0-92.814222 76.117333-168.021333 170.012444-168.021333z m330.012444 170.012444a8.021333 8.021333 0 0 1-8.021333 7.992889h-60.017778a8.021333 8.021333 0 0 1-7.964444-7.964444A253.980444 253.980444 0 0 0 512 188.017778a253.980444 253.980444 0 0 0-254.008889 254.008889 8.021333 8.021333 0 0 1-7.964444 7.964444H190.008889a8.021333 8.021333 0 0 1-8.021333-7.964444c0-168.732444 126.606222-307.911111 290.019555-327.623111v-102.4h-145.322667c-13.681778 0-24.689778-14.307556-24.689777-32v-36.010667c0-4.380444 2.816-7.992889 6.200889-7.992889h407.608888c3.413333 0 6.200889 3.612444 6.200889 7.992889v36.010667c0 17.692444-11.008 32-24.689777 32h-149.333334v101.888c165.319111 18.005333 294.030222 158.008889 294.030222 328.106666z"  horiz-adv-x="1024" />
      
      <glyph glyph-name="closefill" unicode="&#59046;" d="M512 850.03377778C255.68142222 850.03377778 45.96622222 640.3185777799999 45.96622222 384s209.7152-466.03377778 466.03377778-466.03377778 466.03377778 209.7152 466.03377778 466.03377778S768.31857778 850.03377778 512 850.03377778zM706.18074075 244.18986667000001c15.53445925-15.53445925 15.53445925-38.83614815 0-54.37060742s-38.83614815-15.53445925-54.37060742 0L512 329.62939258999995l-139.81013333-139.81013334c-15.53445925-15.53445925-38.83614815-15.53445925-54.37060742 0s-15.53445925 38.83614815 0 54.37060742L457.62939259 384 317.81925925 523.81013333C302.2848 539.34459259 302.2848 562.64628148 317.81925925 578.18074075s38.83614815 15.53445925 54.37060742 0L512 438.37060741l139.81013333 139.81013334c15.53445925 15.53445925 38.83614815 15.53445925 54.37060742 0s15.53445925-38.83614815 0-54.37060742L566.37060741 384 706.18074075 244.18986667000001z"  horiz-adv-x="1024" />
      
      <glyph glyph-name="gift" unicode="&#58973;" d="M549.68853333 476.26026666l0 214.688c-10.96853333 1.03146667-21.65653333 2.2496-30.656 3.7504l0 0-1.49973333 0c0-0.09386667-0.37546667-0.37546667-0.74986667-0.37546667-11.71946667-1.49973333-26.15573333-3.37493333-42.46933333-4.87466666l0-213.18826667-442.31253333 0 0 171.00053333c0 26.9056 21.56266667 48.46933333 48.5632 48.46933334l201.56266666 0c-54.09386667 11.344-94.7808 34.50026667-96.18666666 77.25013333-1.5936 50.4384 55.2192 131.81333333 138.28053333 113.25013333 85.68746667-19.2192 145.5936-85.49973333 191.4368-142.31253333 46.21866667 57.93813333 111.84426667 132.46933333 201.18826667 144.28053333 74.71893333 9.4688 136.50026667-65.15626667 128.5312-114.37546666-6.74986667-43.12533333-48.18666667-66.656-100.87466667-78l198.9376 0c26.9056 0 48.56213333-21.5616 48.56213333-48.46933334l0-171.0944-442.31253333 0zM333.312 841.60426666c-41.344 16.31253333-65.53066667-1.2192-82.96853333-29.90613333-9.4688-16.21866667-19.68746667-37.8752-4.59413334-53.71946667 39.7504-40.87466667 148.87466667-37.8752 222.09386667-30.28053333-34.50026667 43.03146667-76.96853333 91.12533333-134.5312 113.90613333l0 0zM785.4688 758.16639999c28.4064 36.37546667-27.28106667 112.1248-87.18826667 84.09386667-57.28106667-26.9056-98.5312-70.7808-134.15573333-114 30.656-2.71893333 61.78133333-3.37493333 92.4384-1.8752 37.5936 1.5936 106.87466667 4.21866667 128.9056 31.78133333l0 0zM477.312-35.61386666999999l-360.46933333 0c-24.28053333 0-43.96906667 19.68746667-43.96906667 44.2496l0 433.03146666 404.4384 0 0-477.28106666zM951.03146667 8.635733329999994c0-24.656-19.68746667-44.2496-43.96906667-44.2496l-360.37546667 0 0 477.28106666 404.34346667 0 0-433.03146666zM951.03146667 8.635733329999994z"  horiz-adv-x="1024" />
      
      <glyph glyph-name="twitter" unicode="&#59522;" d="M985.31555555 677.20533333c-34.816-15.01866667-72.704-25.82755555-111.72977777-30.03733333 40.27733333 24.00711111 70.88355555 61.89511111 85.33333333 106.95111111-37.20533333-22.18666667-79.30311111-38.45688889-123.10755556-46.87644444C800.31288889 745.13066667 749.90933333 768.56888889 694.04444445 768.56888889c-107.52 0-193.99111111-87.15377778-193.99111112-194.10488889 0-15.01866667 1.82044445-30.03733333 4.77866667-44.48711111-160.99555555 8.41955555-304.58311111 85.33333333-400.04266667 203.09333333-16.83911111-28.89955555-26.39644445-61.89511111-26.39644444-97.96266667 0-67.35644445 34.24711111-126.74844445 86.47111111-161.67822222-31.85777778 1.25155555-61.89511111 10.24-87.72266667 24.68977778v-2.38933333c0-94.32177778 66.67377778-172.48711111 155.53422222-190.464-16.27022222-4.20977778-33.67822222-6.59911111-51.08622222-6.59911111-12.62933333 0-24.576 1.25155555-36.63644444 2.95822222C169.52888889 224.71111111000005 241.09511111 168.84622221999996 326.31466667 167.02577778c-66.67377778-52.224-150.18666667-82.944-240.86755556-82.944-16.27022222 0-31.28888889 0.56888889-46.87644444 2.38933333C124.58666667 31.288888889999953 226.64533333-0.5688888900000393 336.55466667-0.5688888900000393 693.36177778-0.5688888900000393 888.60444445 295.02577778 888.60444445 551.5946666699999c0 8.41955555 0 16.83911111-0.5688889 25.25866666 37.77422222 27.648 70.88355555 61.89511111 97.28 100.352z"  horiz-adv-x="1024" />
      
      <glyph glyph-name="youtube" unicode="&#59153;" d="M971.96428531 615.32142844a120.32142844 120.32142844 0 0 1-84.85714218 84.96428624C812.21428531 720.42857155 512 720.42857155 512 720.42857155s-300.21428531 0-375.10714313-20.03571468A120.12857156 120.12857156 0 0 1 52.03571469 615.42857155C32 540.42857155 32 384 32 384s0-156.42857155 20.03571469-231.32142844c11.03571469-41.35714311 43.60714313-73.92857156 84.85714218-84.96428624C211.78571469 47.571428449999985 512 47.571428449999985 512 47.571428449999985s300.21428531 0 375.10714313 20.14285685c41.35714311 11.03571469 73.82142844 43.60714313 84.85714218 84.96428626C992 227.57142844999998 992 384 992 384s0 156.42857155-20.03571469 231.32142844zM416.64285686 240.42857157000003V527.57142843l248.57142845-142.49999999-248.57142842-144.64285687z"  horiz-adv-x="1024" />
      
      <glyph glyph-name="tiktok" unicode="&#60454;" d="M905.75 465.01757813a369.24609375 369.24609375 0 0 0-215.80664063 68.99414062v-314.15625A285.73242188 285.73242188 0 1 0 443.4453125 502.98632813v-158.00976563a131.16796875 131.16796875 0 1 1 91.81054688-125.12109375V834h154.68749999a213.01171875 213.01171875 0 0 1 3.26953126-38.97070313A214.76953125 214.76953125 0 0 1 787.9765625 654.01757813a213.45117188 213.45117188 0 0 1 117.7734375-35.40234376z"  horiz-adv-x="1024" />
      
    </font>
</defs>
</svg>
